Details for this torrent 

American History X {1080p}{5.1}{AAC}{PcTechPaul}
Type:
Video > HD - Movies
Files:
8
Size:
2.03 GiB (2177376979 Bytes)
Info:
IMDB
Spoken language(s):
English
Tag(s):
Fairuza Balk Beverly D'Angelo Edward Furlong Jennifer Lien Avery Brooks Elliott Gould Edward Norton Giuseppe Andrews Stacy Keach Cleo Adell
Uploaded:
2013-12-14 03:56:11 GMT
By:
PCTECHPAUL
Seeders:
0
Leechers:
1
Comments
0  

Info Hash:
 
B68A617274D4AB24D4B6271586792632AB74EEBF




(Problems with magnets links are fixed by upgrading your torrent client!)
*****************************************************************
American History X (1998)
*****************************************************************
Encoded By PcTechPaul

-------------------------------------------------------------------------------
General Information
-------------------------------------------------------------------------------
Type.................: Movie
Platform.............: Video
More Info............:

Video Format.........: mp4
Video Bitrate........: 2048
Resolution...........: 1080p
Color................: 8 bit
FPS..................: 23.976
Source...............: Bluray
Original Format......: NTSC
Genre................: Crime | Drama
IMDb Rating..........: 8.6
Movie Information....: http://www.imdb.com/title/tt0120586/

-------------------------------------------------------------------------------
Release Notes
-------------------------------------------------------------------------------
Complete name : M:American History Xamericanhistoryx.mp4
Format : MPEG-4
Format profile : Base Media / Version 2
Codec ID : mp42
File size : 2.02 GiB
Duration : 1h 58mn
Overall bit rate mode : Variable
Overall bit rate : 2435 Kbps

Video
ID : 1
Format : AVC
Format/Info : Advanced Video Codec
Format profile : [email protected]
Format settings, CABAC : Yes
Format settings, ReFrames : 16 frames
Codec ID : avc1
Codec ID/Info : Advanced Video Coding
Duration : 1h 58mn
Bit rate mode : Variable
Bit rate : 2 048 Kbps
Width : 1 920 pixels
Height : 1 072 pixels
Display aspect ratio : 16:9
Frame rate mode : Variable
Frame rate : 23.976 fps
Minimum frame rate : 23.974 fps
Maximum frame rate : 23.981 fps
Color space : YUV
Chroma subsampling : 4:2:0
Bit depth : 8 bits
Scan type : Progressive
Bits/(Pixel*Frame) : 0.042
Stream size : 1.70 GiB (84%)
Writing library : x264 core 130 r2273 b3065e6
Encoding settings : cabac=1 / ref=16 / deblock=1:0:0 / analyse=0x3:0x113 / me=hex / subme=7 / psy=1 / psy_rd=1.20:0.20 / mixed_ref=1 / me_range=16 / chroma_me=1 / trellis=1 / 8x8dct=1 / cqm=0 / deadzone=21,11 / fast_pskip=1 / chroma_qp_offset=-3 / threads=12 / lookahead_threads=2 / sliced_threads=0 / nr=0 / decimate=1 / interlaced=0 / bluray_compat=0 / constrained_intra=0 / bframes=16 / b_pyramid=2 / b_adapt=1 / b_bias=0 / direct=1 / weightb=1 / open_gop=0 / weightp=2 / keyint=240 / keyint_min=24 / scenecut=40 / intra_refresh=0 / rc_lookahead=40 / rc=2pass / mbtree=1 / bitrate=2048 / ratetol=1.0 / qcomp=0.60 / qpmin=0 / qpmax=69 / qpstep=4 / cplxblur=20.0 / qblur=0.5 / ip_ratio=1.40 / aq=1:1.00

Color primaries : BT.709
Transfer characteristics : BT.709
Matrix coefficients : BT.709

Audio
ID : 2
Format : AAC
Format/Info : Advanced Audio Codec
Format profile : LC
Codec ID : 40
Duration : 1h 58mn
Bit rate mode : Variable
Bit rate : 384 Kbps
Maximum bit rate : 599 Kbps
Channel(s) : 6 channels
Channel positions : Front: L C R, Side: L R, LFE
Sampling rate : 48.0 KHz
Compression mode : Lossy
Delay relative to video : 83ms
Stream size : 326 MiB (16%)