Details for this torrent 

18+ The Returned 2014 UNCENSORED English Movies DVDRip XViD with
Type:
Video > Movies
Files:
2
Size:
703.84 MiB (738032501 Bytes)
Uploaded:
2014-02-25 18:42:14 GMT
By:
basicssom Trusted
Seeders:
11
Leechers:
0
Comments
0  

Info Hash:
 
94D9C7824A5DFF6F9AB58DD2AD041076A6E44B3F




(Problems with magnets links are fixed by upgrading your torrent client!)
 http://s5.postimg.org/hgeuxszk7/logo.png

18+ The Returned 2014 UNCENSORED English Movies DVDRip XViD with Sample ~ ☻rDX☻

Please check SCREEN SHOTS first :
 
http://moviesreview.co.nr/2014/2/TheReturned/1.html 
http://moviesreview.co.nr/2014/2/TheReturned/2.html 
http://moviesreview.co.nr/2014/2/TheReturned/3.html 
http://moviesreview.co.nr/2014/2/TheReturned/4.html 
http://moviesreview.co.nr/2014/2/TheReturned/5.html 
http://moviesreview.co.nr/2014/2/TheReturned/6.html 
http://moviesreview.co.nr/2014/2/TheReturned/7.html 
http://moviesreview.co.nr/2014/2/TheReturned/8.html 
http://moviesreview.co.nr/2014/2/TheReturned/9.html 
http://moviesreview.co.nr/2014/2/TheReturned/10.html

All rDX torrents are Seeding From the 1Gbps Seedbox 24X7

POSTER:
 
http://s8.postimg.org/92pbgnob9/The_Returned_2013_Movie_Poster.jpg

Format                                   : Matroska
Format version                           : Version 4 / Version 2
File size                                : 692 MiB
Duration                                 : 1h 38mn
Overall bit rate                         : 986 Kbps
Movie name                               : The Returned 2013 English Movies DVDRip XViD ~ rDX ~

Video
ID                                       : 1
Format                                   : MPEG-4 Visual
Format profile                           : Advanced Simple@L5
Format settings, BVOP                    : Yes
Format settings, QPel                    : No
Format settings, GMC                     : No warppoints
Format settings, Matrix                  : Default (H.263)
Codec ID                                 : V_MS/VFW/FOURCC / XVID
Codec ID/Hint                            : XviD
Duration                                 : 1h 38mn
Bit rate                                 : 854 Kbps
Width                                    : 640 pixels
Height                                   : 272 pixels
Display aspect ratio                     : 2.35:1
Frame rate mode                          : Constant
Frame rate                               : 23.976 fps
Color space                              : YUV
Chroma subsampling                       : 4:2:0
Bit depth                                : 8 bits
Scan type                                : Progressive
Compression mode                         : Lossy
Bits/(Pixel*Frame)                       : 0.205
Stream size                              : 600 MiB (87%)
Title                                    : ~ rDX ~
Writing library                          : XviD 64
Default                                  : Yes
Forced                                   : No

Audio
ID                                       : 2
Format                                   : MPEG Audio
Format version                           : Version 1
Format profile                           : Layer 3
Mode                                     : Joint stereo
Mode extension                           : MS Stereo
Codec ID                                 : A_MPEG/L3
Codec ID/Hint                            : MP3
Duration                                 : 1h 38mn
Bit rate mode                            : Constant
Bit rate                                 : 112 Kbps
Channel(s)                               : 2 channels
Sampling rate                            : 48.0 KHz
Compression mode                         : Lossy
Stream size                              : 78.6 MiB (11%)
Title                                    : ~ rDX ~
Writing library                          : LAME3.99r
Encoding settings                        : -m j -V 4 -q 3 -lowpass 15.6 -b 112
Default                                  : Yes
Forced                                   : No